欢迎光临
我们一直在努力

[亚利桑那  ][HD-MP4/2.86G]A homicidal foreclosure victim kidnaps a real estate [英语中文字幕][1080P]可爱磁力电影相关介绍链接

–>

Arizona.2018.720p.AMZN.WEBRip.DDP5.1.x264-NTG

◎电影译名 亚利桑那

◎电影片名 Arizona

◎年  代 2018

◎产  地 美国

◎电影类型 笑剧

◎语  行 英语

◎上映日期 2018-01-20(圣丹斯影戏节)

◎片  长 85分钟

◎导  演 乔纳森·沃森 Jonathan Watson

◎主  演 丹僧·麦克布莱德 Danny McBride

      罗丝玛丽·德薇特 Rosemarie DeWitt

      卢克·威尔逊 Luke Wilson

      Lolli Sorenson

      伊丽莎白·吉莱丝 Elizabeth Gillies

      凯特琳·奥尔森 Kaitlin Olson

◎影片简介

  A homicidal foreclosure victim kidnaps a real estate agent and plans to kill her in the housing development where she finagled money from customers like him.

Video
ID : 1
Format : AVC
Format/Info : Advanced Video Codec
Format profile : High@L3.1
Format settings : CABAC / 5 Ref Frames
Format settings, CABAC : Yes
Format settings, ReFrames : 5 frames
Codec ID : V_MPEG4/ISO/AVC
Duration : 1 h 23 min
Bit rate : 1 451 kb/s
Width : 1 280 pixels
Height : 544 pixels
Display aspect ratio : 2.35:1
Original display aspect ratio : 2.35:1
Frame rate mode : Constant
Frame rate : 23.976 (24000/1001) FPS
Color space : YUV
Chroma subsampling : 4:2:0
Bit depth : 8 bits
Scan type : Progressive
Bits/(Pixel*Frame) : 0.087
Stream size : 869 MiB (69%)
Default : Yes
Forced : No
Color range : Limited
Color primaries : BT.709
Transfer characteristics : BT.709
Matrix coefficients : BT.709

Audio
ID : 2
Format : E-AC-3
Format/Info : Enhanced Audio Coding 3
Codec ID : A_EAC3
Duration : 1 h 23 min
Bit rate mode : Constant
Bit rate : 640 kb/s
Channel(s) : 6 channels
Channel positions : Front: L C R, Side: L R, LFE
Sampling rate : 48.0 kHz
Frame rate : 187.500 FPS (256 SPF)
Compression mode : Lossy
Stream size : 383 MiB (31%)
Language : English
Service kind : Complete Main
Default : Yes
Forced : No

Text #1
ID : 3
Format : UTF-8
Codec ID : S_TEXT/UTF8
Codec ID/Info : UTF-8 Plain Text
Duration : 1 h 20 min
Bit rate : 76 b/s
Count of elements : 1448
Stream size : 44.9 KiB (0%)
Title : SDH
Language : English
Default : No
Forced : No

Text #2
ID : 4
Format : UTF-8
Codec ID : S_TEXT/UTF8
Codec ID/Info : UTF-8 Plain Text
Duration : 1 h 17 min
Bit rate : 70 b/s
Count of elements : 1315
Stream size : 40.0 KiB (0%)
Language : Spanish
Default : No
Forced : No

Text #3
ID : 5
Format : UTF-8
Codec ID : S_TEXT/UTF8
Codec ID/Info : UTF-8 Plain Text
Duration : 1 h 17 min
Bit rate : 71 b/s
Count of elements : 1288
Stream size : 40.8 KiB (0%)
Language : French
Default : No
Forced : No

1 个附件
卖价
巨细
下载
工夫


arizona.2018.mkv.torrent

0 金币
21.35K
4951 次
16小时前


#2楼

精品电影3D效果IMAX预览不要太给力 !
番号作品预览
极品骑兵番号你懂の磁力链推荐下载 
magnet:?xt=urn:btih:BC41B48700AF6D55F4E30FCE72C57A14DAE059DA
1电影资料(BT磁力等)立即免费获取

赞(0)
未经允许不得转载:i酷影讯 » [亚利桑那  ][HD-MP4/2.86G]A homicidal foreclosure victim kidnaps a real estate [英语中文字幕][1080P]可爱磁力电影相关介绍链接
GIF精品动图推荐


*不同于一般资源站点.ikools发布每一部都是精选.宁缺毋滥.第一时间更新最新完美的资讯
*本站不发布任何ek2k电驴链接.BT种子磁力链等,百度云网盘离线迅雷下载等通通木有
*本站所有资源文章由源码程序自动收集发布生成,并非代表本站观点,本站不承担任何法律责任
*如侵犯了您的权益,请邮件@通知,并提供权利产权证明,核实后会第一时间删除!谢谢您的关注
*本站挂的各种广告为广告商赞助,请尽量少点击,不代表本站观点,本站也不负任何法律责任,其真伪性自行辨别!
*喜欢本站 请按"Ctrl + D" 收藏我们哦~ 谢谢~【www.ikools.com】每日精彩分享